&title=脳漿炸裂ガール [DX]
&wholebpm=155
&artist=れるりり
&des=はっぴー
&shortid=10191
&genre=niconicoボーカロイド
&cabinet=DX
&version=maimai DX
&chartconverter=Neskol
&lv_2=4
&des_2=-
&lv_3=6
&des_3=-
&lv_4=11
&des_4=Jack
&lv_5=12+
&des_5=はっぴー
&des_6=
&inote_2=
(155){1},
{1},
{1},
{1},
{1},
{1}8,
{1}7,
{1}6,
{1}5,
{1}4,
{1}3,
{1}2,
{1}1,
{4}1,1,,,
{4}2,2,,,
{4}3,3,,,
{1}4/5,
{4}5,5,,,
{4}6,6,,,
{4}7,7,,,
{1}1/8,
{1}7-3[4:3],
{1},
{1}2-6[4:3],
{1},
{4}8,8,,,
{4}7,7,,,
{4}6,6,,,
{2}4/5,4/5,
{4}3,3,,,
{4}2,2,,,
{1}1-5[4:3],
{1},
{2}4/5,4/5,
{2}E4,E5,
{2}E6,E7,
{2}E8,E1,
{1}E2,
{2}3,4/5,
{2}E5,B3/B6,
{1}C1f,
{4},,1,1,
{4}1,,2,2,
{4}2,,3,3,
{4}3,,4,4,
{4}4/5,,5,5,
{4}5,,6,6,
{4}6,,7,7,
{2}7,1x/8x,
{4}1x/8x,,8,8,
{4}8,,7,7,
{4}7,,6,6,
{4}6,,5,5,
{4}4/5,,3,3,
{4}3,,4,4,
{4}4,,5,5,
{2}5,E5,
{2}E4/E6,C1f,
{1},
{4},,8,8,
{4}8,,7,7,
{4}7/8,,6,6,
{4}6,,5,5,
{4}4/5,,4,4,
{4}4,,3,3,
{2}3b/4b,2-6[4:3],
{1},
{1},
{1},
E
&inote_3=
(155){1},
{4}3,4,4/5,,
{4}6,5,4/5,,
{4}3,4,4/5,,
{4}5,4,3x/6x,,
{4}6,6,5,5,
{4}6,6,5/7,,
{4}3,3,4,4,
{4}3,3,2/4,,
{4}2,2,1,1,
{4}2,2,1/3,,
{4}6,7,8,1,
{4}2,3,4/5,,
{1}3-6[8:3],
{4}6,5,4/7,,
{1}7-2[8:3],
{4}2,1,3/8,,
{1}1-4[8:3],
{4}5,6,4/7,,
{1}5-8[8:3],
{4}1/2,3/8,4/7,5/6,
{1}4h[1:1]/7h[1:1],
{1},
{1}2h[1:1]/5h[1:1],
{1},
{4}6h[2:1],5,5,,
{4}3h[2:1],4,4,,
{4}2h[2:1],1,1,,
{4}7h[2:1],8,8,,
{4}6,6,5/6,4/5,
{4}3,3,3/4,4/5,
{4}6,5,4,3,
{1}4h[2:1]/5h[2:1],
{2}B4,B3,
{2}B2,B1,
{2}8h[2:1],7h[2:1],
{2}6h[2:1],5,
{2}B5,B6,
{2}B7,B8,
{2}1h[4:1]/2h[4:1],7h[4:1]/8h[4:1],
{4}1/8,2/7,3b/6b,,
{4},,4/6,4/6,
{4}3/5,3/5,4/6,3/5,
{4}4/6,,7,8,
{4}1,2,3,4,
{4}2x/5x,,3/5,3/5,
{4}4/6,4/6,3/5,4/6,
{4}3/5,,3,4,
{4}5,6,7,8,
{4}1x/6x,,2/8,2/8,
{4}1/7,1/7,2/8,1/7,
{8}2x/8x,,,,3,3,3,,
{8}4,4,4,,5,5,5,,
{4}4/6,,1/7,1/7,
{4}2/8,2/8,1/7,2/8,
{8}1x/7x,,,,7,7,7,,
{8}8,8,8,,1,1,1,,
{4}1/8,2b/7b,2h[1:1]/7h[1:1],,
{1},
{4},,3,3,
{4}4,4,5,5,
{4}4/6,,6,6,
{4}5,5,4,4,
{4}3/5,,2,2,
{4}1,1,8,8,
{2}1/7,2-6[2:1],
{1},
{1},
{1},
E
&inote_4=
(155){1},
{1}3h[1:1],
{4}6h[1:1],5,,5,
{1}3h[1:1],
{4}6h[1:1],5,4,3,
{16}2,,,,1/3,,,,2h[16:3],,,3h[16:3],,,4,,
{2}4-8[8:1],1-5[8:1],
{16}7,,,,6/8,,,,7h[16:3],,,6h[16:3],,,5,,
{2}5-1[8:1],8-4[8:1],
{16}2,,,,1/3,,,,2h[16:3],,,3h[16:3],,,4,,
{2}4-8[8:1],1-5[8:1],
{16}7,,,,6/8,,,,7h[16:3],,,6h[16:3],,,5,,
{4}5<4[16:5],,,C1,
{8}6,5,4/7,,1,8,2/7,,
{8}3,4,2/5,,4/7,,B5/B6,,
{8}7,8,1/6,,4,5,3/6,,
{8}2,1,3/8,,6,6,5,5,
{8}3,4,2/5,,8,1,2/7,,
{8}6,5,4/7,,2/5,,B3/B4,,
{8}2,2,7,7,3,3,6,6,
{8}4,4,5,5,4>1[2:1],5p8[2:1],,,
{8},,,,,,8<5[2:1],1p4[2:1],
{8},,,,,,2<7[2:1],6q3[2:1],
{1},
{4}B4/B5,E3/E7,B1/B8,2/7,
{8}3/6,4,5,6,7,8,1/6,,
{8}3/4,4/5,5/6,,4-8[8:1]/5-1[8:1],,,,
{8}2/7,8,1,2,3,4,2/5,,
{2}7-5[8:1]/8-4[8:1],1-5[8:1]/2-4[8:1],
{8}7,5,6,6,2,4,3,3,
{8}5,4,3/6,,7-3[8:1],2-6[8:1],,,
{8}7,7,6/8,,2,2,1/3,,
{16}4x,5x,4x,5x,4x,5x,4x,5x,4x,,,,,,,,
{8}1h[2:1]/5h[2:1],,,,,1/5,6,6,
{8}3,3,7,7,2,2,8,8,
{8}1-6[8:1],6-1[8:1],,,8-3[8:1],3-8[8:1],,,
{8}1,1,8,8,1>4[8:1]/7<4[8:1],,,,
{8}4h[2:1]/8h[2:1],,,,,4/8,3,3,
{8}5,5,4,4,6,6,4/5,,
{2}6h[4:1]/7h[4:1],2h[4:1]/3h[4:1],
{16}1x,8x,1x,8x,1x,8x,1x,8x,1x,8x,1x,8x,1x,,,,
{4},,7b/8b,1b/6b,
{16}2,4,,4,2,,2,,8,,8,,4,7<4[8:1],,7,
{4},,2-5[8:1],6,
{4}3-8[8:1],7,2-5[8:1],6,
{4}B7/B8,B3/B4,1b/2b,3b/8b,
{16}7,5,,5,7,,7,,1,,1,,5,2>5[8:1],,2,
{4},,7-4[8:1],3,
{4}6-1[8:1],2,7-4[8:1],3,
{4}B1/B2,B5/B6,3b/4b,1b/7b,
{16}2,4,,4,2,,2,,8,,8,,4,7p3[8:1],,7,
{4},,2-5[8:1],7-4[8:1],
{4}3-8[8:1],6-1[8:1],2-5[8:1],6,
{4}B7/B8,B3/B4,5b/6b,2b/8b,
{16}1x,8x,1x,8x,2x,7x,2x,7x,3,,4,,5,2q6[8:1],,2,
{4},,7-3[8:1],2-6[8:1],
{8}8-4[8:1],,1,,1/8,2,3,4,
{8}5,6,2b/7b,,C1hf[1:1],,,,
{1},
{16},,,,,,,,8,,8h[16:3],,,1h[16:3],,,
{16}2h[16:3],,,3h[16:3],,,4,,4-8[8:1],,,,2,,,,
{16}3-1[8:1],,,,8,,,,1,,1h[16:3],,,8h[16:3],,,
{16}7h[16:3],,,6h[16:3],,,5,,5-1[8:1],,,,7,,,,
{16}6-8[8:1],,,,1,,,,8,,8h[16:3],,,1h[16:3],,,
{16}2h[16:3],,,3h[16:3],,,4,,4-8[8:1],,,,2,,,,
{16}1-5[8:1],,,,7,,,,6,,5/6,,3,4,,4,
{16}5,,5,6,,,1/8,1x/8x,,,,,,,,,
{1},
{1},
{1},
E
&inote_5=
(155){1},
{16}6,,6h[16:3],,,5h[16:3],,,4h[16:3],,,3h[16:3],,,4,,
{8}4,3,5,6,4<7[8:1],3,2,2,
{16}3,,3h[16:3],,,4h[16:3],,,5h[16:3],,,6h[16:3],,,5,,
{8}5,6,4,3,5>2[8:1],6,7,8,
{16}7,,7h[16:3],,,5h[16:3],,,4h[16:3],,,2h[16:3],,,4,,
{8}4,2,5,7,4<7[8:1],2,1,3,
{16}2,,2h[16:3],,,4h[16:3],,,5h[16:3],,,7h[16:3],,,5,,
{8}5,7,4,2,5>2[8:1],7,6,8,
{16}7,,7h[16:3],,,5h[16:3],,,4h[16:3],,,2h[16:3],,,4,,
{8}4,2,5,7,4<7[8:1],2,1,3,
{16}2,,2h[16:3],,,4h[16:3],,,5h[16:3],,,7h[16:3],,,5,,
{8}5,7,4,2,5,7,3/6,,
{16}6,5,,3,4,,7,8,,2,1,,6,5,,3,
{8}4,3/4,1q5[8:1]/2>5[8:1],,,,6,7,
{8}1/8,2/7,B4/E4/B5/E6,2/7,1/8,2/7,B4/E4/B5/E6,2/7,
{8}1/8,2/7,B4/E4/B5/E6,2/7,1/8,2/7,3/6,3/6,
{8}5/7h[8:1],5,2h[8:1]/4,4,1/7h[8:1],1,1-4[8:1]/8-5[8:1],1/8,
{8},,2/7,8,5/7,4/6,3/5,2/4,
{8}3-6[8:1]/7-2[8:1],3/7,,,1/8,2/7,3/6,4/5,
{8}6,6,3,3,E2,E8,E1,,
{4}C1hf[1:3],,,8<5[8:3],
{4},,,1>4[8:3],
{4},,,8p5[4:3],
{1},
{16}3,4,,6,5,,2,1,,7,8,,4/5,,,,
{8}B7/B8/E8,B1/E2/B2,B4/E5/B5,,3-1[8:1]/6-8[8:1],,,,
{8}1/8,2/7,B4/E4/B5/E6,2/7,1/8,2/7,E4/B4/B5/E6,2/7,
{8}1/8,2/7,B4/E4/B5/E6,2/7,1/8,2/7,3/6,3/6,
{8}2h[8:1]/4,4,5/7h[8:1],5,3/6,,B3/B4/E4/B5/B6/E6,,
{8}1/8,2/7,3/6,4/5,2/4,3/5,4/6,5/7,
{8}2<7[8:1]/6>3[8:1],2/6,,,1/8<1[1:1],,C1hf[4:3],,
{1},
{8}8b,,,,,3,4,5,
{8}6,6,5,4,3,3,4/5,3/6,
{8}1/2,3/8,B5/E5/B6/E7,3/8,1/2,3/8,B5/E5/B6/E7,3/8,
{8}1/2,3/4,5>8[4:1]/6,,,,,,
{8}C1f,,,,2,3,4,5,
{8}6,7,1-5[8:1]/8-4[8:1],,1b/8b,,,,
{12}1/8,1,1,C1f/1,,,1/8,8,8,C1f/8,,,
{16}1,8,1,8,2,7,3,6,4-1[8:1],5,4,5,,,,,
{4},8<5[8:1],8>3[8:1],8<5[8:1],
{24}8>3[8:1],B7,B6,B5,,,8<5[8:1],B1,B2,B3,,,8>3[8:1],B7,B6,B5,,,8w4[8:1],B1,B2,B3,,,
{16},,,,,1h[8:1],,8,8,,6/7,,4/5,,2/3,,
{16}1/8,,2/7,,3/6,,5,4,,4/5,,3/6,,1,8,,
{8}2/6,3/7,1>4[8:1],,1<6[8:1],,1>4[8:1],,
{48}1<6[8:1],,B2,,B3,,B4,,,,,,,,B8,,B7,,B6,,,,,,1/8,,,,,,2/7,,,,,,3/6,,,3/6,,,,,,C1/B2/B3/B6/B7,,,
{16},,,,,1h[8:1],,8,8,,1/2,,7/8,,5/6,,
{8}4/5,6/7,1/8,2/3,4/5,3/6,4-1[8:1]/5-8[8:1],2/7,
{4}4/5,1>4[8:1],1<6[8:1],1>4[8:1],
{24}1<6[8:1],B2,B3,B4,,,1>4[8:1],B8,B7,B6,,,1<6[8:1],B2,B3,B4,,,1w5[8:1],B8,B7,B6,,,
{16},,,,,8h[8:1],,1,1,,2/3,,4/5,,6/7,,
{16}1/8,,2/7,,3/6,,4,5,4,5,,3/6,,8,1,,
{8}3/7,2/6,8<5[8:1],,8>3[8:1],,8<5[8:1],,
{48}8>3[8:1],,B7,,B6,,B5,,,,,,,,B1,,B2,,B3,,,,,,1/8,,,,,,2/7,,,,,,3/6,,,3/6,,,,,,B1/B2/E2/B7/E8/B8,,,
{16},,,,,4h[8:1],,5,5,,7/8,,1/2,,3/4,,
{8}4/5,2/3,1/8,6/7,4/5,3/6,1>8[4:9]/8,,
{2}C1f,C1f,
{2}C1f,C1f,
{16}C1f,,,,,,,,3,,3h[16:3],,,1h[16:3],,,
{16}8h[16:3],,,6h[16:3],,,8,,8,,6,,1,,3,,
{16}8>3[8:1],,6,,5,,7,,6,,6h[16:3],,,8h[16:3],,,
{16}1h[16:3],,,3h[16:3],,,1,,1,,3,,8,,6,,
{16}1<6[8:1],,3,,2,,4,,3,,3h[16:3],,,1h[16:3],,,
{16}8h[16:3],,,6h[16:3],,,8,,1/8,,1/8,,6,5,,3,
{16}4,2,5,1,6,8,7,,1/6,,3/8,,3,4,,6,
{16}5,,4,5,,,C1f/B2/B3/B6/B7,,,,,,,,,,
{1},
{1},
{1},
E
